Google Earth Pro Tour (mp4)

I'm trying to add an mp4 from Google Earth Pro (Tour) into my project and I keep getting a Load Error. Any suggestions?

 

Comments

  • Can't comment unless we know something about your file. MP4 does not describe the contents.

    A full text report from the free MediaInfo utility would be useful. You can copy/paste from MediaInfo to a post here.

  • edited May 2018

    I also tried...

    General
    Complete name : D:\A-Mokai-GoProTrips\TempVideoHoldingArea\Grayson-SP(Ky)\Grayson-GreenboTour.m4v
    Format : MPEG-4
    Format profile : Base Media
    Codec ID : isom (isom/iso2/avc1/mp41)
    File size : 16.2 MiB
    Duration : 23 s 317 ms
    Overall bit rate : 5 821 kb/s
    Writing application : Lavf57.56.101

    Video
    ID : 1
    Format : AVC
    Format/Info : Advanced Video Codec
    Format profile : Main@L3.2
    Format settings : CABAC / 1 Ref Frames
    Format settings, CABAC : Yes
    Format settings, RefFrames : 1 frame
    Format settings, GOP : M=1, N=12
    Codec ID : avc1
    Codec ID/Info : Advanced Video Coding
    Duration : 23 s 317 ms
    Bit rate : 5 814 kb/s
    Width : 1 280 pixels
    Height : 720 pixels
    Display aspect ratio : 16:9
    Frame rate mode : Constant
    Frame rate : 60.000 FPS
    Color space : YUV
    Chroma subsampling : 4:2:0
    Bit depth : 8 bits
    Scan type : Progressive
    Bits/(Pixel*Frame) : 0.105
    Stream size : 16.2 MiB (100%)

     

     

    Information:

    General
    Complete name : D:\A-Mokai-GoProTrips\TempVideoHoldingArea\Grayson-SP(Ky)\Grayson-GreenboTour.mp4
    Format : MPEG-4
    Format profile : QuickTime
    Codec ID : qt 0000.02 (qt )
    File size : 110 MiB
    Duration : 23 s 317 ms
    Overall bit rate mode : Variable
    Overall bit rate : 39.4 Mb/s
    Writing application : Lavf57.56.101

    Video
    ID : 1
    Format : JPEG
    Codec ID : jpeg
    Duration : 23 s 317 ms
    Bit rate mode : Variable
    Bit rate : 39.4 Mb/s
    Width : 1 280 pixels
    Height : 720 pixels
    Display aspect ratio : 16:9
    Frame rate mode : Constant
    Frame rate : 60.000 FPS
    Color space : YUV
    Bit depth : 8 bits
    Scan type : Progressive
    Compression mode : Lossy
    Bits/(Pixel*Frame) : 0.712
    Stream size : 110 MiB (100%)
    Language : English

     

  • The first file listing: (Grayson-GreenboTour.m4v)

    I don't see any problem here. It should work. I am not sure if Hitfilm has an issue with the M4V file extension. You can rename the extension to MP4 and try that.

    Previously you only mentioned an MP4 file problem. Are you getting the same "load error" on this file as well?

    Second file listing: (Grayson-GreenboTour.mp4)

    That format (motion jpeg) is not supported.

    On Windows, if you install Quicktime and rename the file extension to MOV, you can read that file In Hitfilm. Quicktime performance is not the best, so you are better off transcoding files like that to something else. For example, Cineform or fast decode AVC.

     

  • Triem23Triem23 Moderator

    @NormanPCN just to confirm, yes, motion JPEG MOV opens in Hitfilm, but performance is terrible (then again performance is terrible in VLC and Vegas, too). 

Sign In or Register to comment.